Now You See Me 2 (2016) 2160p 4K UltraHD BluRay x265 10bit DTSHD 7.1

Great Britain, China, Canada, USA Movies / Thrillers 4K
Producer: Jon M. Chu
Cast:Jesse Eisenberg, Mark Ruffalo, Woody Harrelson, Dave Franco, Daniel Radcliffe, Lizzy Caplan, Jay Chou, Sanaa Lathan, Michael Caine, Morgan Freeman, David Warshofsky, Tsai Chin, William Henderson, Richard Laing, Henry Lloyd-Hughes...
IMDB 6.50
File Size 57.38 GB
Film description
"Four horsemen", the team of the best illusionists of the world, is again assembled! Their "magic" has become even more perfect, and the enemies are more dangerous. This time they will have to save their reputation and bring to the clean water the brutal technomagnet ...

Feedback on the film:
Yes, yes, if you set yourself skeptically, this film instantly turns into a solid one: "Oh well, this is some kind of nonsense, it's all unreal ...". Really! But only with an incredible talent and a serious share of luck, without which the riders had long been lying on the plank or in the coffin, because in the second part of the tricks and tricks have become even more difficult, and the enemy is even more dangerous.

The film came out no worse than the first: the plot carries away, visual effects on the level, and the main villain pleases with his charisma (he could not have enough screen time).

There is some tightness, for which you have to throw off a point, but the imperfection of the narrative is compensated by spectacular stunts / tricks. Probably for the maximum "YOU!" Not enough only 3D. And the filmmakers could have squeezed out more of Radcliffe, do not put him in the shadows of such maestros as Morgan Freeman and Michael Kane. As if these old men did not try, and on the second plan they can not retreat - too high a level. But the young actors were pleased, especially Lizzie Kaplan - that's really a successful hit in the role!

I recommend to family viewing on the big screen. If you liked the first part, this movie will go "with a bang!".

2160p 4K UltraHD BluRay Rip
HEVC 10 Bits BT709
English DTSHD-MA 7.1 Audio
English French Subs


Source : 4K UHD BluRay @ Zeus (Thanks)
Format : Matroska
File size : 57.4 GiB
Duration : 2 h 9 min
Overall bit rate : 63.5 Mb/s

Video
Format : HEVC
Format profile : Main 10@L5@Main
Bit rate : 61.1 Mb/s
Width : 3 840 pixels
Height : 2 160 pixels
Display aspect ratio : 16:9
Frame rate : 24.000 FPS
Bit depth : 10 bits
Stream size : 55.1 GiB (96%)
Color primaries : BT.709

Audio #1

Format : DTS MA / Core
Bit rate : 2 581 kb/s / 1 509 kb/s
Channel(s) : 8 channels
Stream size : 2.33 GiB (4%)
Language : English

Chapters : YES

Screenshots of the movie:









File size: 57.38 GB


download 4k movies

Watch the movie trailer Now You See Me 2 (2016) 2160p 4K UltraHD BluRay x265 10bit DTSHD 7.1
Watch the movie trailer
Comments