The 5th Wave 2016 2160p 4K UHD BluRay HEVC 10bit DTS-HD 5.1 [ENG]

Producer: J. Blakeson
Cast:Chlo Grace Moretz, Nick Robinson, Ron Livingston, Maggie Siff, Alex Roe, Maria Bello, Maika Monroe, Zackary Arthur, Liev Schreiber, Tony Revolori, Talitha Bateman, Nadji Jeter, Alex MacNicoll...
IMDB 5.20
File Size 25.8+55.29 GB
Film description
The first wave left a haze behind it. Only the most lucky ones managed to escape from the second one. But you can hardly call those who survived after the third are lucky. And the fourth wave erased all human laws, but instead established its own, only one: you want to live - do not believe anyone. And now the fifth wave is rolling ...
Ohio high-schooler Cassie Sullivan, armed with an M4 carbine, emerges from the woods to raid an abandoned gas station. Upon entering, she hears a male voice calling for help. She finds a wounded man, who points a gun at her, but they each put their weapons down. His hand is under his jacket and as he takes it out, she sees a glint of metal and kills him. He was holding a crucifix and the screen cuts to black to show her backstory.

A city-sized alien spaceship is circling Earth containing extraterrestrials referred to as "The Others." Ten days later, The Others unleash their 1st Wave, an electromagnetic pulse that permanently destroys all electrical power, including vehicles and causing flying aircraft to fall. The 2nd Wave has The Others manipulate the Earth's fault lines, causing earthquakes and tsunamis that kill those living in coastal cities. For the 3rd Wave, The Others weaponize a strain of avian flu, using birds as carriers of the virus killing Cassie's mother.

Cassie, her father and her younger brother, Sam, find a refugee camp in the woods with roughly 300 survivors. A few days later, an army unit with working vehicles rolls into the camp. The unit's commander, Colonel Vosch, claims there is an imminent threat of a 4th Wave and they will take the children to safety at Wright-Patterson Air Force Base, intending to bring the buses back to retrieve the adults. Cassie is separated from Sam, and witnesses the adults being massacred by the army.

Cassie scavenges her way toward the base, but is shot in the leg by an unseen enemy and passes out. About a week later, she wakes up in the farmhouse of Evan Walker, who saved her. Cassie leaves towards the base with Evan, but learns that he is an Other, sent years ago as a sleeper agent and merged his consciousness into a human host. The sleepers roam their designated zones, killing human survivors. Evan admits his humanity was reactivated when he saw her, disagrees with the invasion and lets her leave. He warns that Colonel Vosch and the military are possessed by the consciousness of individual Others.

At the base, the military have used deception and technology to convince the rescued children that the humans outside the base have been possessed. They provide military training to the children, forming them into squads to go on kill missions outside the base. Sam has been placed into a squad led by Ben, a boy Cassie had a crush on, along with Ringer, a tough teenager, Dumbo and Teacup. While out on a kill mission, Ringer removes her military implant, causing her to register as an Other-possessed human on the squad's scopes. The squad deduces the plan to have them kill real humans, making them the 5th Wave. Ben sends his squad into the woods and returns to base, claiming his squad was killed, for the purpose of retrieving Sam, who was left behind.

Ben confronts Colonel Vosch about child warriors being the 5th Wave and Cassie kills Sergeant Reznik during her one-on-one indoctrination spiel. Ben and Cassie find each other and leave to find Sam. Evan sets off numerous bombs and advises them to quickly find Sam before the destruction of the entire facility. Colonel Vosch and the surviving military evacuate with the human children by military aircraft. Cassie, Ben, and Sam escape, with help from Ringer, just as Evan completes the destruction of the base. Ben's squad is reunited and Cassie ponders the strength of hope as humanity's driving force for survival. Download 4K Ultra Hd og the movie the 5th Wave 2016 2160p 4K UHD BluRay HEVC 10bit DTS-HD 5.1 [ENG].
Info

English DTSHD-MA 5.1 Audio
English & French Subs

Source : 4K UHD BluRay
Format : Matroska
File size : 25.8 GiB
Duration : 1 h 52 min
Overall bit rate : 32.9 Mb/s

Video
Format : HEVC
Format profile : Main 10@L5@Main
Bit rate : 30.7 Mb/s
Width : 3 840 pixels
Height : 1 608 pixels
Display aspect ratio : 2.40:1
Frame rate : 23.976 (24000/1001) FPS
Bit depth : 10 bits
Stream size : 24.1 GiB (93%)
Color primaries : BT.709

Audio #1
Format : DTS MA / Core
Bit rate : 2 190 kb/s / 1 509 kb/s
Channel(s) : 6 channels
Stream size : 1.72 GiB (7%)
Language : English

Chapters : YES


Update: added movie The.5th.Wave.2016.2160p.BluRay.REMUX.HEVC.DTS-HD.MA.TrueHD.7.1.Atmos.mkv

Screenshots of the movie:









File size: 25.8+55.29 GB


download 4k movies

Watch the movie trailer The 5th Wave 2016 2160p 4K UHD BluRay HEVC 10bit DTS-HD 5.1 [ENG]
Watch the movie trailer
Comments
reload, if the code cannot be seen