Miss Peregrine's Home for Peculiar Children (2016) Multi 4K UltraHD Blu-Ray x265 (HEVC 10 Bits) DTSHD 7.1

United Kingdom, Belgium, USA Movies / Drama 4K
Producer: Tim Burton
Cast:Eva Green, Asa Butterfield, Samuel L. Jackson, Judi Dench, Rupert Everett, Allison Janney, Chris O'Dowd, Terence Stamp, Ella Purnell, Finlay MacMillan, Lauren McCrostie, Hayden Keeler-Stone, Georgia Pemberton, Milo Parker, Raffiella Chapman...
IMDB 6.80
File Size 42.23 GB
Film description
The childhood of Jacob passed under grandfather's stories about a shelter for unusual children. Among its inhabitants girl who knew how to handle a fire, the girl whose feet do not touch the ground, and the invisible boy twins, who were able to communicate without words. When Grandpa dies, 16-year-old Jacob receives a mysterious letter and sent to the island where his grandfather grew up. There he finds the children who had seen only in photographs.

Feedback on the film:

I did not intend to watch this work closely. And my wife is opposite. Well of course I had to look. Before that I saw reviews from different bloggers ... And ... somehow it sufficed me.

But in fact the film is quite good. And besides, it's Tim Burton. (Yes, I did not pay attention to bloggers). And here and there Tim Burton somehow manifests himself. But then, by the way, you can say that Burton "smells" more expressively in those pictures where Burton is not a director ("The Nightmare Before Christmas", "Coraline in a country of nightmares"). But I will not quibble. To be Burton Burton or not to be - to decide Burton. And the film is about that.

Teenage boy Jake grows up and develops as an outstanding personality. This is understandable to the audience, but so far not to him. How does this clear up? He knows about something unusual his unusual grandfather. It turns out that his grandfather did not fly off the reels, but sent him information that he went to Wales to the mysterious Miss Peregrine. And, naturally, this can not be a spoiler, because the name of the work is working on it.

The psychologist advised Jake's parents to change the situation for their son. So the story was fastened. Further the plot only grows stronger. This has been happening since when Jake meets the inhabitants of the house. All with hidden abilities.

Well, since I started talking about one actor, I'll say a few words about Eve Greene (Miss Peregrine). In the title role - Ace Butterfield. Well, an associate in love - Ella Pernell (in the role of Emma) ... Actually here is the picture that every character here is very important and weighty. But I'll only say more about Terence Stempe (Grandpa Abe). Well, just because it's a very familiar and famous actor.

And, finally, I'm ready to recommend this movie for viewing. It has everything to brighten the evening. A film for all ages. He definitely will draw attention.

I wish you pleasant viewing!


General

Format : Matroska
Format version : Version 4 / Version 2
File size : 34.0 GiB
Duration : 2 h 7 min
Overall bit rate : 38.3 Mb/s
Encoded date : UTC 2017-01-20 04:55:19
Writing application : mkvmerge v9.7.1 ('Pandemonium') 64bit
Writing library : libebml v1.3.4 + libmatroska v1.4.5

Video

Format : HEVC
Format/Info : High Efficiency Video Coding
Format profile : Main 10@L5@Main
Codec ID : V_MPEGH/ISO/HEVC
Duration : 2 h 7 min
Bit rate : 33.0 Mb/s
Width : 3 840 pixels
Height : 2 160 pixels
Display aspect ratio : 16:9
Frame rate mode : Constant
Frame rate : 23.976 (24000/1001) FPS
Color space : YUV
Chroma subsampling : 4:2:0
Bit depth : 10 bits
Bits/(Pixel*Frame) : 0.166
Stream size : 29.3 GiB (86%)
Writing library : x265 2.2+22-20217c8af8ac:[Windows][GCC 6.2.0][64 bit] 10bit
Encoding settings : cpuid=1173503 / frame-threads=5 / numa-pools=14,14 / wpp / no-pmode / no-pme / no-psnr / no-ssim / log-level=2 / input-csp=1 / input-res=3840x2160 / interlace=0 / total-frames=182952 / level-idc=0 / high-tier=1 / uhd-bd=0 / ref=3 / no-allow-non-conformance / no-repeat-headers / annexb / no-aud / no-hrd / info / hash=0 / no-temporal-layers / open-gop / min-keyint=23 / keyint=250 / bframes=4 / b-adapt=2 / b-pyramid / bframe-bias=0 / rc-lookahead=20 / lookahead-slices=8 / scenecut=40 / no-intra-refresh / ctu=64 / min-cu-size=8 / no-rect / no-amp / max-tu-size=32 / tu-inter-depth=1 / tu-intra-depth=1 / limit-tu=0 / rdoq-level=0 / signhide / no-tskip / nr-intra=0 / nr-inter=0 / no-constrained-intra / no-strong-intra-smoothing / max-merge=2 / limit-refs=3 / no-limit-modes / me=3 / subme=2 / merange=57 / temporal-mvp / weightp / no-weightb / no-analyze-src-pics / deblock=-3:-3 / sao / no-sao-non-deblock / rd=3 / no-early-skip / rskip / no-fast-intra / no-tskip-fast / no-cu-lossless / no-b-intra / rdpenalty=0 / psy-rd=3.50 / psy-rdoq=0.00 / no-rd-refine / analysis-mode=0 / no-lossless / cbqpoffs=0 / crqpoffs=0 / rc=crf / crf=14.0 / qcomp=0.60 / qpstep=4 / stats-write=0 / stats-read=0 / ipratio=1.40 / pbratio=1.30 / aq-mode=2 / aq-strength=1.00 / cutree / zone-count=0 / no-strict-cbr / qg-size=32 / no-rc-grain / qpmax=69 / qpmin=0 / sar=1 / overscan=0 / videoformat=5 / range=0 / colorprim=1 / transfer=1 / colormatrix=1 / chromaloc=0 / display-window=0 / max-cll=0,0 / min-luma=0 / max-luma=1023 / log2-max-poc-lsb=8 / vui-timing-info / vui-hrd-info / slices=1 / opt-qp-pps / opt-ref-list-length-pps / no-multi-pass-opt-rps / scenecut-bias=0.05 / no-opt-cu-delta-qp / aq-motion
Language : English
Color range : Limited
Color primaries : BT.709
Transfer characteristics : BT.709
Matrix coefficients : BT.709

Audio #1
Format : DTS
Format/Info : Digital Theater Systems
Format profile : MA / ES Matrix / Core
Mode : 16
Format settings, Endianness : Big
Codec ID : A_DTS
Duration : 2 h 6 min
Bit rate mode : Variable / Constant / Constant
Bit rate : 4 528 kb/s / 1 509 kb/s / 1 509 kb/s
Channel(s) : 8 channels / 7 channels / 6 channels
Channel positions : Front: L C R, Side: L R, Back: L R, LFE / Front: L C R, Side: L R, Back: C, LFE / Front: L C R, Side: L R, LFE
Sampling rate : 48.0 kHz
Frame rate : 93.750 FPS (512 spf)
Bit depth : 24 bits
Compression mode : Lossless / Lossy / Lossy
Delay relative to video : 18 s 0 ms
Stream size : 4.01 GiB (12%)
Language : English

Audio #2
Format : DTS
Format/Info : Digital Theater Systems
Mode : 16
Format settings, Endianness : Big
Codec ID : A_DTS
Duration : 2 h 6 min
Bit rate mode : Constant
Bit rate : 768 kb/s
Channel(s) : 6 channels
Channel positions : Front: L C R, Side: L R, LFE
Sampling rate : 48.0 kHz
Frame rate : 93.750 FPS (512 spf)
Bit depth : 24 bits
Compression mode : Lossy
Delay relative to video : 18 s 0 ms
Stream size : 697 MiB (2%)
Language : French



Text #1
Format : PGS
Muxing mode : zlib
Codec ID : S_HDMV/PGS
Codec ID/Info : Picture based subtitle format used on BDs/HD-DVDs
Duration : 2 h 5 min
Bit rate : 99 b/s
Count of elements : 14
Stream size : 91.9 KiB (0%)
Language : English

Text #2

Format : PGS
Muxing mode : zlib
Codec ID : S_HDMV/PGS
Codec ID/Info : Picture based subtitle format used on BDs/HD-DVDs
Duration : 2 h 5 min
Bit rate : 8 018 b/s
Count of elements : 2582
Stream size : 7.21 MiB (0%)
Language : French

Text #3
Format : PGS
Muxing mode : zlib
Codec ID : S_HDMV/PGS
Codec ID/Info : Picture based subtitle format used on BDs/HD-DVDs
Duration : 1 h 56 min
Bit rate : 9 511 b/s
Count of elements : 2764
Stream size : 7.96 MiB (0%)
Language : French

Screenshots of the movie:









File size: 42.23 GB


download 4k movies

Watch the movie trailer Miss Peregrine's Home for Peculiar Children (2016) Multi 4K UltraHD Blu-Ray x265 (HEVC 10 Bits) DTSHD 7.1
Watch the movie trailer
Comments
link broken12 March 2018, 16:02
the link for this movie is broken
4kmovies15 March 2018, 10:43
vvbdb17 March 2018, 17:00
thx you are the best
reload, if the code cannot be seen