Keeping Up With The Joneses (2016) 2160p 4K UHD x265 10 bits DTSHD-MA 7.1

Producer: Greg Mottola
Cast:Zach Galifianakis, Isla Fisher, Jon Hamm, Gal Gadot, Patton Oswalt, Ming Zhao, Matt Walsh, Maribeth Monroe, Michael Liu, Kevin Dunn, Dayo Abanikanda, Henry Boston, Jack McQuaid, Bobby Lee, Ying He...
IMDB 5.80
File Size 54.73 GB
Film description
A married couple from the suburbs is embroiled in an international spy conspiracy, when she discovers that their seemingly ideal new neighbors are government agents.
Feedback:
Jeff (Zack Galifianakis) and Karen (Ayla Fisher) Gafni is an ordinary family American couple living in a small suburb. In their area, everything is calm, peace and idyll, broken only by the fact that someone does not clean up for their dogs after a walk. The rest is full order. Having sent their two sons to the school camp, the couple can finally breathe peacefully. But it was not there. In the neighboring house a spectacular couple enters, which is very different from the rest of the residents of the district. The hypocritical Karen notices that something in the dear, at first glance, Tim (John Hamm) and Natalie (Gal Gadot) is not so. When the veil of mystery rises, Karen and Jeff understand that their fears are confirmed. Together with secret government agents, they are entangled in an international cause.

Greg Mottola made a light comedy about what happens when you are too hypocritical. In my opinion, the main task of any comedy is to make the audience laugh. In this picture, I really laughed, so I think that the picture was a success. Of course, this is a film without a special semantic load, there is no need to search for deep morality. A phrase fits perfectly: "You know less, you sleep more tightly."

In the film, a good atmosphere of modern America, sounds famous music, a lot of jokes, and not too vulgar. Dialogues certainly are not too strong, but this is explained by the characters of the main characters. There are in the picture and the moments inherent in the action movie, they are made quite well.

Of course, many will go to this film for the sake of Zach Galifianakis, who is remembered for his role in "The Bachelor Party in Vegas", where he was the most "crazy" friend of the groom. In this picture, he is fairly thin, but less comical from this did not. According to the recently released comedy "The instigators", we have already realized that he succeeds in the roles of simple hard workers. Here he also plays an average worker and a family man. His naivete makes even the most stiff audience laugh. Perfectly coped with his role, Ayla Fisher. She even eclipsed Zak a little, as it seemed to me. Not comedy actors John Hamm and the beauty Gal Kadot also looked great in the frame and fit into the story.

Of course sometimes you want to relax after a hard day, take your friends with you and go see a movie. Here are "Spies in the neighborhood" just for such a case. The film does not exactly load you, it's a great discharge after a hard day. If you are sad - I advise you to watch, the time for viewing will fly by unnoticed.

Source : 4K UHD BluRay
Format : Matroska
File size : 54.7 GiB
Duration : 1 h 45 min
Overall bit rate : 74.2 Mb/s

Video
Format : HEVC
Format profile : Main 10@L5@Main
Bit rate : 69.4 Mb/s
Width : 3 840 pixels
Height : 2 160 pixels
Display aspect ratio : 16:9
Frame rate : 23.976 (24000/1001) FPS
Bit depth : 10 bits
Stream size : 51.2 GiB (93%)
Color primaries : BT.709

Audio #1
Format : DTSHD MA 7.1
Bit rate : 4 309 kb/s / 1 509 kb/s / 1 509 kb/s
Channel(s) : 8 channels
Bit depth : 24 bits
Stream size : 3.17 GiB (6%)
Language : English

Audio #2
Format : AC-3
Bit rate : 448 kb/s
Channel(s) : 6 channels
Language : French

Chapters : YES

Screenshots of the movie:









File size: 54.73 GB


download 4k movies

Watch the movie trailer Keeping Up With The Joneses (2016) 2160p 4K UHD x265 10 bits DTSHD-MA 7.1
Watch the movie trailer
Comments
reload, if the code cannot be seen