The Rogue One: A Star Wars Toy Story 4K HDR 10bit BT2020 Chroma 422 Edition DTS HD

United States, United Kingdom Movies / Adventure 4K
Producer: Gareth Edwards
Cast:Felicity Jones, Diego Luna, Alan Tudyk, Donnie Yen, Wen Jiang, Ben Mendelsohn, Guy Henry, Forest Whitaker, Riz Ahmed, Mads Mikkelsen, Jimmy Smits, Alistair Petrie, Genevieve O'Reilly, Ben Daniels, Paul Kasey...
IMDB 8.00
File Size 43.30 GB
Film description
The resistance gathers a detachment to carry out a special mission - it is necessary to steal the drawings of the most perfect and deadly weapons of the Empire. The unarmed and fearless Jin Erso, who has personal motives in this self-destructive task, leads the fighters. Not everyone is destined to return home, but the heroes are ready for this, because the fate of the Galaxy is at stake.

Review of the film:
Outcast was a member of the family
"Star Wars" is a giant project. History is so loved by everyone that any interference in it is doomed to close analysis on the shelves. Everything: sound, picture, manner of shooting, costumes, landscapes - must correspond to the main idea and the given tone. Inadmissible liberty. That's why not every director will agree to shoot a spin-off, in fact, preceding the main events. For the creators of the film, this is a true punishment. Step left or right - literally shooting the army of fans.

"Outcast-one" tells the story of the rebels who captured the "Death Star" plans, which will then be used in the fourth episode. In the "New Hope" there is literally a small phrase that many people died, getting these drawings. And now we have a chance to find out at what price this was done. The film opens the fans the opportunity to look at the battles and sacrifices away from the main front.

We must pay tribute to Edwards, he made a great film. He well conveyed the atmosphere of events before the fourth episode. Considering the fact that the final of the film is known to everyone, to make it dramatic, it was not an easy task.

The actors coped well. Felicity Jones and Diego Luna are somewhat apprehensive at first. But they justified themselves pretty quickly. Their game is even, corresponds to the spirit of the franchise. It's a pity little screen time given to Mikkelson. He seems to be a good choice from the first frames.

Events develop dynamically throughout the movie, you will not be bored. This is a full story of the "Star Wars". On the other hand, it's hard to imagine a film without the Jedi, lightsabers and the influence of the Force. But the creators, apparently knowing this very well, got out of the situation. First, there was Darth Vader, which means that there will be a lightsaber. But he is a Sith. What about the Jedi? During the time in which the film unfolds, Obi-Wan Kenobi and Yoda are alive. But they, as the film's authors promised, do not take part in the Outcast. The way out was in the person of a monk of an ancient temple, in which crystals are protected, which are used in lightsabers. The monk is not a Jedi. But he is familiar with the power and at times is able to feel her a little. Honestly, it is this "surrogate" of the Jedi that is an annoying element. Either because he uses power, but is not a Jedi, which was a bold and dangerous find of writers. Either because he constantly chatter like a mantra phrase about the Force. I'm sure that franchise lovers did not immediately take him into the world of "Star Wars", giving a chance to prove themselves. (I removed the ball from the evaluation here)

Curious looks like the style of spin-off. No standard screensaver at the beginning of the episode. The general musical scheme is very similar to the classical, but slightly modified. Thus, the filmmakers seem to hint that Izgoy is a bit out of the general line of the franchise. However, the film is full of references to the sign elements. I take off my hat for the incarnation on the screen of General Tarkin. Also luminescent were R2D2 and C3PO. As without them. Well, in the final of the film - it's just a huge thank you, I will not say for what. I will say only, after inspecting to the end, you will be truly rewarded! Be sure your emotions go off scale.

Thus, the film "Izgoy-one" - took a worthy place in the franchise series forever. Now if you are going to review the "Star Wars", then you must add it between the third and fourth episodes.

MEDIA SPECS

Video
ID : 1
Format : HEVC
Format/Info : High Efficiency Video Coding
Format profile : @L5@High
Codec ID : V_MPEGH/ISO/HEVC
Duration : 2 h 13 min
Bit rate : 39.8 Mb/s
Width : 3 840 pixels
Height : 1 608 pixels
Display aspect ratio : 2.40:1
Frame rate mode : Constant
Frame rate : 23.976 (24000/1001) FPS
Color space : YUV
Chroma subsampling : 4:2:2 (Type 2)
Bit depth : 10 bits
Bits/(Pixel*Frame) : 0.269
Stream size : 37.2 GiB (86%)
Title : TEKNO3D.com Rogue One: A Star Wars Story 4K VISIONPLUSHDR-1000 4:2:2 Edition
Writing library : x265 2.3+17-6e348252e902:[Windows][GCC 6.3.0][64 bit] 10bit
Encoding settings : cpuid=1173503 / frame-threads=3 / numa-pools=8 / wpp / no-pmode / no-pme / no-psnr / no-ssim / log-level=2 / input-csp=2 / input-res=3840x1608 / interlace=0 / total-frames=192703 / level-idc=0 / high-tier=1 / uhd-bd=0 / ref=1 / no-allow-non-conformance / repeat-headers / annexb / no-aud / no-hrd / info / hash=0 / no-temporal-layers / no-open-gop / min-keyint=23 / keyint=250 / bframes=3 / b-adapt=0 / b-pyramid / bframe-bias=0 / rc-lookahead=5 / lookahead-slices=8 / scenecut=40 / no-intra-refresh / ctu=32 / min-cu-size=16 / no-rect / no-amp / max-tu-size=32 / tu-inter-depth=1 / tu-intra-depth=1 / limit-tu=0 / rdoq-level=0 / dynamic-rd=0.00 / no-signhide / no-tskip / nr-intra=0 / nr-inter=0 / no-constrained-intra / strong-intra-smoothing / max-merge=2 / limit-refs=0 / no-limit-modes / me=3 / subme=5 / merange=57 / temporal-mvp / no-weightp / no-weightb / no-analyze-src-pics / deblock=0:0 / no-sao / no-sao-non-deblock / rd=2 / early-skip / no-rskip / fast-intra / no-tskip-fast / no-cu-lossless / no-b-intra / rdpenalty=0 / psy-rd=4.00 / psy-rdoq=0.00 / no-rd-refine / analysis-mode=0 / no-lossless / cbqpoffs=0 / crqpoffs=0 / rc=abr / bitrate=40000 / qcomp=0.60 / qpstep=1 / stats-write=0 / stats-read=0 / ipratio=1.10 / pbratio=1.00 / aq-mode=0 / aq-strength=0.00 / no-cutree / zone-count=0 / no-strict-cbr / qg-size=32 / rc-grain / qpmax=69 / qpmin=0 / sar=0 / overscan=0 / videoformat=5 / range=0 / colorprim=9 / transfer=16 / colormatrix=9 / chromaloc=1 / chromaloc-top=2 / chromaloc-bottom=2 / display-window=0 / master-display=G(8500,39850)B(6550,2300)R(35400,14600)WP(15635,16450)L(100000000,1) / max-cll=10000,180 / min-luma=0 / max-luma=1023 / log2-max-poc-lsb=8 / vui-timing-info / vui-hrd-info / slices=1 / opt-qp-pps / opt-ref-list-length-pps / no-multi-pass-opt-rps / scenecut-bias=0.05 / no-opt-cu-delta-qp / no-aq-motion / hdr / no-hdr-optrefine-level=5
Default : Yes
Forced : No
Color range : Limited
Color primaries : BT.2020
Transfer characteristics : SMPTE ST 2084
Matrix coefficients : BT.2020 non-constant
Mastering display color primaries : R: x=0.708000 y=0.292000, G: x=0.170000 y=0.797000, B: x=0.131000 y=0.046000, White point: x=0.312700 y=0.329000
Mastering display luminance : min: 0.0001 cd/m2, max: 10000.0000 cd/m2
Maximum Content Light Level : 10000 cd/m2
Maximum Frame-Average Light Level : 180 cd/m2


Audio #1
ID : 2
Format : DTS
Format/Info : Digital Theater Systems
Format profile : MA / Core
Mode : 16
Format settings, Endianness : Big
Codec ID : A_DTS
Duration : 2 h 13 min
Bit rate mode : Variable / Constant
Bit rate : 5 136 kb/s / 1 509 kb/s
Channel(s) : 8 channels / 6 channels
Channel positions : Front: L C R, Side: L R, Back: L R, LFE / Front: L C R, Side: L R, LFE
Sampling rate : 48.0 kHz
Frame rate : 93.750 FPS (512 spf)
Bit depth : 24 bits
Compression mode : Lossless / Lossy
Delay relative to video : 3 ms
Stream size : 4.80 GiB (11%)
Title : English DTS-HD Master Audio 7.1
Language : English
Default : Yes
Forced : No

Audio #2

ID : 3
Format : AC-3
Format/Info : Audio Coding 3
Format settings, Endianness : Big
Codec ID : A_AC3
Duration : 2 h 13 min
Bit rate mode : Constant
Bit rate : 640 kb/s
Channel(s) : 6 channels
Channel positions : Front: L C R, Side: L R, LFE
Sampling rate : 48.0 kHz
Frame rate : 31.250 FPS (1536 spf)
Bit depth : 16 bits
Compression mode : Lossy
Delay relative to video : 24 ms
Stream size : 613 MiB (1%)
Title : French AC-3 5.1
Language : French
Service kind : Complete Main
Default : No
Forced : No

Audio #3

ID : 4
Format : AC-3
Format/Info : Audio Coding 3
Format settings, Endianness : Big
Codec ID : A_AC3
Duration : 2 h 13 min
Bit rate mode : Constant
Bit rate : 640 kb/s
Channel(s) : 6 channels
Channel positions : Front: L C R, Side: L R, LFE
Sampling rate : 48.0 kHz
Frame rate : 31.250 FPS (1536 spf)
Bit depth : 16 bits
Compression mode : Lossy
Delay relative to video : 24 ms
Stream size : 613 MiB (1%)
Title : Spanish Latino AC-3 5.1
Language : Spanish
Service kind : Complete Main
Default : No
Forced : No

SUBTITLES: English,Espaol Latino and French.
CHAPTERS: YES.

Screenshots of the movie:









File size: 43.30 GB


download 4k movies

Watch the movie trailer The Rogue One: A Star Wars Toy Story 4K HDR 10bit BT2020 Chroma 422 Edition DTS HD
Watch the movie trailer
Comments
reload, if the code cannot be seen