Ice Age Collision Course 2016 UHD 4K 2160p HEVC10 Multi DTSHD 7.1

USA Movies
Producer: Mike Thurmeier
Cast:Stephanie Beatriz, Robert Cardone Robert, Neil deGrasse Tyson, Adam Devine, Jesse Tyler Ferguson, Max Greenfield, Jessie J, Queen Latifah, Denis Leary, John Leguizamo, Jennifer Lopez, Jorge Lucas, Andrew Christopher Nichols, Nick Offerman, Keke Palmer...
IMDB 5.70
File Size 34.23 GB
Film description
A desperate pursuit of an elusive acorn catapult Shtata directly into space, where he accidentally launches a whole series of cosmic events. They will change the whole world of the Ice Age and become a real threat to him. To be saved, Sid, Manny, Diego and the rest of the beasts must leave their homes, go on a fun and exciting adventure into exotic new lands and meet with a variety of colorful new characters.

2160p 4K UltraHD BluRay Rip
HEVC 10 Bits BT709 SDR

English Dolby ATMOS 7.1 Audio
French VFF Spanish Russian DTS 5.1 Audio
Arabic Estonian Greek Hebrew Hindi Icelandic Latvian Lithuanian Chinese Polish Portuguese Romanian Turkish Ukrainian DDS 5.1 Audio

Arabic Chinese English Estonian French Greek Hebrew Hindi Icelandic Latvian Lithuanian Polish Portuguese Spanish Romanian Russian Turkish & Ukrainian Subs+SDH



Source : 4K UHD BluRay
Format : Matroska
File size : 34.2 GiB
Duration : 1 h 34 min
Overall bit rate : 51.8 Mb/s

Video
Format : HEVC
Format profile : Main 10@L5@Main
Bit rate : 38.6 Mb/s
Width : 3 840 pixels
Height : 1 600 pixels
Display aspect ratio : 2.40:1
Frame rate : 23.976 (24000/1001) FPS
Bit depth : 10 bits
Stream size : 25.5 GiB (74%)
Color primaries : BT.709

Audio #1
Format : DTSHD-MA 7.1
Bit rate : 4 618 kb/s / 1 509 kb/s / 1 509 kb/s
Channel(s) : 8 channels
Stream size : 3.05 GiB (9%)
Language : English

Other DTS 5.1 Audio: French Spanish Russian
Format : DTS
Bit rate : 768 kb/s
Channel(s) : 6 channels
Bit depth : 24 bits
Stream size : 519 MiB (1%) each


Other DDS 5.1 Audio: Arabic Estonian Greek Hebrew Hindi Icelandic Latvian Lithuanian Chinese Polish Portuguese Romanian Turkish Ukrainian
Format : DDS 5.1
Bit rate : 2 048 kb/s / 1 509 kb/s
Channel(s) : 6 channels
Bit depth : 16 bits
Stream size : 1.43 GiB (4%)

Chapters : YES

Screenshots of the movie:









File size: 34.23 GB


download 4k movies

Watch the movie trailer Ice Age Collision Course 2016 UHD 4K 2160p HEVC10 Multi DTSHD 7.1
Watch the movie trailer
Comments