The Legend of Tarzan 2016 2160p 4K UltraHD BluRay x265 HEVC 10bit Dolby Atmos 7.1

Great Britain, Canada, USA Movies / Adventure 4K
Producer: David Yates
Cast:Alexander Skarsgrd, Rory J. Saper, Christian Stevens, Christoph Waltz, Samuel L. Jackson, Margot Robbie, Sidney Ralitsoele, Osy Ikhile Osy Ikhile, Mens-Sana Tamakloe, Antony Acheampong, Edward Apeagyei, Ashley Byam, Casper Crump, Adam Ganne, Aleksandar Mikic...
IMDB 6.30
File Size 50.06 GB
Film description
Adapted to life in London, Tarzan returns to his former home, in the jungle, to understand what is happening in the camp of the mining company. On our site you can download the movie "The Legend of Tarzan" in 4K.

Reviews of the movie:
A beautiful, timeless story transmitted over the new

This film left a great impression after viewing, which was not happening for a long time, that's why I'm writing this review, although, perhaps, the reviewer is not any of me.

I read what I wrote about this film and it seems that people just "zazhralas." A wonderful soulful work, they put 6, and some sort of empty, well, "deep" 10 ku.

In this film, the inimitable Alexander Skarsgard was shot, which I'm incredibly happy about. At first I thought - Chito? What is Tarzan from the vampire Eric? But how am I wrong, and most importantly how I was happy about this mistake. He plays perfectly, he remarkably embodied the spirit of unity with nature, the scene where he rubs his head with a lion and takes a soul. It's fine. Meeting relatives and friends is always fine, but here it is served in a new way.

Jane surprised me too, her brutal image in the squad of suicides, tenderness and sensitivity was too sensational I did not expect to see. But again the error is tenderness, sensitivity and strength.

Like two ideal superman. Ideal images, acting impulsively, instinctively and always true.

Where there are illogical actions - life for life, greed and greed governs many people. The powerful of this world are striving to become even stronger, the rich are even richer. The world is mired in this, which is not logical.

And who doubts that an animal from a wild habitat weighing about 160 kg can be aggressive? PFF - aggression can manifest any animal. And write nonsense that I could not watch because they exposed the mimicry gorillas as aggressors just nonsense.

My advice is to look and appreciate. The actors played at altitude, and the special effects made us cry. Verdict alone is chic.


2160p 4K UltraHD BluRay Rip
HEVC 10 Bits BT709

English Dolby ATMOS 7.1 Audio


English French Subs



Source : 4K UHD BluRay @ 4K-HD.CLUB
Format : Matroska
File size : 50.1 GiB
Duration : 1 h 49 min
Overall bit rate mode : Variable
Overall bit rate : 65.2 Mb/s

Video
Format : HEVC
Format profile : Main 10@L5@Main
Bit rate : 59.6 Mb/s
Width : 3 840 pixels
Height : 2 160 pixels
Display aspect ratio : 16:9
Frame rate : 23.976 (24000/1001) FPS
Bit depth : 10 bits
Stream size : 45.8 GiB (91%)
Color primaries : BT.709

Audio #1
Format : Atmos / TrueHD
Bit rate : 4 851 kb/s / 8 097 kb/s
Channel(s) : 8 channels
Stream size : 3.73 GiB (7%)
Language : English

Chapters : YES

Screenshots of the movie:









File size: 50.06 GB


download 4k movies

Watch the movie trailer The Legend of Tarzan 2016 2160p 4K UltraHD BluRay x265 HEVC 10bit Dolby Atmos 7.1
Watch the movie trailer
Comments
reload, if the code cannot be seen