Journey To Space 2015 Multi 2160p 4K UltraHD BluRay (x265 HEVC 10bit) ATMOS 7.1 ESub

Producer: Mark Krenzien
Cast:Christian Gardner, Gabrielle Gardner, Gabrielle Gardner, Patrick Stewart...
IMDB 6.50
File Size 19.57 GB
Film description
In the past half century, humans have punched through the stratosphere, walked on the moon, and lived continuously in orbit. In the coming decades, our unquenchable curiosity will take our species beyond the cradle of Earth to touch the face of another world. Strap in for the next giant leap. Next stop ... Mars! An unveiling of a new era of unprecedented. Download "Journey To Space" and see in 4k ultra hd 2160P. The film is really beautiful, and interesting. All pleasant viewing.

2160p UHD 4K Blu-Ray Rip
HEVC 10 Bits BT709

English Dolby ARMOS 7.1 Audio
French & Spanish AC3 5.1 Audio

English Subtitle(s)



Note:
Audio + Subs + Chapter files are from BD50 HD Blu-Ray synced and mixed to UHD-4K Video from 4K-HD.CLUB.

High End CPU + GPU is required to play very high bitrate 4K.
Fully tested with :
- PC with PotPlayer V 1.6 / Xeon Broadwell CPU / NVidia GTX1080
- Nvidia Shield streaming through PLEX on Samsung TV

Format : Matroska
File size : 40.4 GiB
Duration : 1 h 26 min
Overall bit rate : 66.6 Mb/s

Video
Format : HEVC
Format/Info : High Efficiency Video Coding
Format profile : Main 10@L6.1@Main
Codec ID : V_MPEGH/ISO/HEVC
Duration : 41 min
Bit rate : 61.2 Mb/s
Width : 3 840 pixels
Height : 2 160 pixels
Display aspect ratio : 16:9
Frame rate mode : Constant
Frame rate : 23.976 (24000/1001) FPS
Color space : YUV
Chroma subsampling : 4:2:0
Bit depth : 10 bits
Bits/(Pixel*Frame) : 0.308
Stream size : 17.8 GiB (91%)
Default : Yes
Forced : No
Color range : Limited
Color primaries : BT.709
Transfer characteristics : BT.709
Matrix coefficients : BT.601

Audio #1
Format : Atmos / TrueHD
Codec ID : A_TRUEHD
Duration : 41 min
Bit rate mode : Variable
Bit rate : 4 211 kb/s
Maximum bit rate : 6 144 kb/s
Channel(s) : Object Based / 8 channels
Channel positions : Object Based / Front: L C R, Side: L R, Back: L R, LFE
Sampling rate : / 48.0 kHz
Frame rate : 1 200.000 FPS (40 spf)
Compression mode : Lossless
Delay relative to video : -5 ms
Stream size : 1.22 GiB (6%)
Language : English
Default : Yes
Forced : No

Audio #2
ID : 3
Format : AC-3
Format/Info : Audio Coding 3
Mode extension : CM (complete main)
Format settings, Endianness : Big
Codec ID : A_AC3
Duration : 41 min
Bit rate mode : Constant
Bit rate : 640 kb/s
Channel(s) : 6 channels
Channel positions : Front: L C R, Side: L R, LFE
Sampling rate : 48.0 kHz
Frame rate : 31.250 FPS (1536 spf)
Compression mode : Lossy
Delay relative to video : 17 ms
Stream size : 190 MiB (1%)
Language : English
Default : No
Forced : No

Audio #3
ID : 4
Format : AC-3
Format/Info : Audio Coding 3
Mode extension : CM (complete main)
Format settings, Endianness : Big
Codec ID : A_AC3
Duration : 41 min
Bit rate mode : Constant
Bit rate : 640 kb/s
Channel(s) : 6 channels
Channel positions : Front: L C R, Side: L R, LFE
Sampling rate : 48.0 kHz
Frame rate : 31.250 FPS (1536 spf)
Compression mode : Lossy
Delay relative to video : 17 ms
Stream size : 190 MiB (1%)
Language : French
Default : No
Forced : No

Audio #4
ID : 5
Format : AC-3
Format/Info : Audio Coding 3
Mode extension : CM (complete main)
Format settings, Endianness : Big
Codec ID : A_AC3
Duration : 41 min
Bit rate mode : Constant
Bit rate : 640 kb/s
Channel(s) : 6 channels
Channel positions : Front: L C R, Side: L R, LFE
Sampling rate : 48.0 kHz
Frame rate : 31.250 FPS (1536 spf)
Compression mode : Lossy
Delay relative to video : 17 ms
Stream size : 190 MiB (1%)
Language : Spanish
Default : No
Forced : No

Chapters : YES

Screenshots of the movie:









File size: 19.57 GB


download 4k movies

Watch the movie trailer Journey To Space 2015 Multi 2160p 4K UltraHD BluRay (x265 HEVC 10bit) ATMOS 7.1 ESub
Watch the movie trailer
Comments
Millie23 March 2017, 22:56
I will immediately snatch your rss ass I can’t tto find your e-mail subscrtiption link orr e-newsletter service. Do you hage any? Please lett me know iin order thbat I coulld subscribe. Thanks. Itts such ass yyou lesarn mmy mind! Youu seem too nderstand sso mujch approxumately this, sujch as yoou wrote thee e bok in iit orr something. I thinjk thhat yoou could ddo withh a few p.c. to fore tthe mwssage house a bit, buut insted oof that, thaat is excellent blog. A grea read. I'll certainly bbe back. I wilol rigvht way cluttch youjr rrss as I can’t find yoour e-mail subscreiption hyperlink oor newslette service. Do youu have any? Plese perdmit mee know soo that I maay subscribe. Thanks. 
reload, if the code cannot be seen