Star Wars Episode II Attack Of The Clones 2002 MULTI UHD 4K x264 DTS-HDMA MSubs

Producer: George Lucas
Cast:Ewan McGregor, Natalie Portman, Hayden Christensen, Christopher Lee, Samuel L. Jackson, Frank Oz, Ian McDiarmid, Pernilla August, Temuera Morrison, Jimmy Smits, Jack Thompson, Leeanna Walsman, Ahmed Best, Rose Byrne, Oliver Ford Davies....
IMDB 6.70
File Size 46.97 GB
Film description
The action takes place 10 years after the events described in the first episode of the famous saga. The Republic is plunging deeper into the abyss of contradictions and chaos. The movement of the separatists, represented by hundreds of planets and a powerful alliance of corporations, threatens to become a new threat to the Galaxy, which even the Jedi can not cope with.

A brewing conflict, planned in advance by powerful, but not yet exposed forces, leads to the beginning of the Clone Wars and to the decline of the republic. To counter the threat of universal proportions, Supreme Chancellor Palpatine seeks to consolidate power in the republic in his hands and orders the creation of a Republican army to support a small group of Jedi in their struggle against a superior adversary. Star Wars Episode VII - The Force Awakens 2015 UHD 4K

UHD 4K 2160p / Blu-Ray 4K Rip / x264
English DTS-HDMA 7.1
French DTS 5.1
Hindi AC3 2.0
Spanish AC3 5.1
Portuguese AC3 5.1
English / French / Spanish / Portuguese
/ Danish / Dutch / Finnish / Norvegian/ Swedish
+ Foreign & SDH Subs


Format : Matroska
File size : 47.0 GiB
Duration : 2 h 22 min
Overall bit rate : 47.2 Mb/s

Video

ID : 1
Format : AVC
Format/Info : Advanced Video Codec
Format profile : Main@L5.1
Format settings, CABAC : Yes
Format settings, ReFrames : 1 frame
Format settings, GOP : M=1, N=24
Codec ID : V_MPEG4/ISO/AVC
Duration : 2 h 22 min
Bit rate : 40.0 Mb/s
Width : 3 840 pixels
Height : 2 160 pixels
Display aspect ratio : 16:9
Frame rate mode : Constant
Frame rate : 23.976 (24000/1001) FPS
Color space : YUV
Chroma subsampling : 4:2:0
Bit depth : 8 bits
Scan type : Progressive
Bits/(Pixel*Frame) : 0.201
Stream size : 39.8 GiB (85%)
Language : English
Default : Yes
Forced : No
Color range : Limited
Color primaries : BT.709
Transfer characteristics : BT.709
Matrix coefficients : BT.709

Audio #1

ID : 2
Format : DTS
Format/Info : Digital Theater Systems
Format profile : MA / ES Discrete / Core
Mode : 16
Format settings, Endianness : Big
Codec ID : A_DTS
Duration : 2 h 22 min
Bit rate mode : Variable / Constant / Constant
Bit rate : 4 533 kb/s / 1 509 kb/s / 1 509 kb/s
Channel(s) : 7 channels / 7 channels / 6 channels
Channel positions : Front: L C R, Side: L R, Back: C, LFE / Front: L C R, Side: L R, Back: C, LFE / Front: L C R, Side: L R, LFE
Sampling rate : 48.0 kHz
Frame rate : 93.750 FPS (512 spf)
Bit depth : 24 bits
Compression mode : Lossless / Lossy / Lossy
Stream size : 4.51 GiB (10%)
Language : English
Default : No
Forced : No

Audio #2
ID : 3
Format : DTS
Format/Info : Digital Theater Systems
Mode : 16
Format settings, Endianness : Big
Codec ID : A_DTS
Duration : 2 h 22 min
Bit rate mode : Constant
Bit rate : 768 kb/s
Channel(s) : 6 channels
Channel positions : Front: L C R, Side: L R, LFE
Sampling rate : 48.0 kHz
Frame rate : 93.750 FPS (512 spf)
Bit depth : 24 bits
Compression mode : Lossy
Stream size : 783 MiB (2%)
Language : French
Default : No
Forced : No

Audio #3

ID : 4
Format : AC-3
Format/Info : Audio Coding 3
Mode extension : CM (complete main)
Format settings, Endianness : Big
Codec ID : A_AC3
Duration : 2 h 22 min
Bit rate mode : Constant
Bit rate : 448 kb/s
Channel(s) : 6 channels
Channel positions : Front: L C R, Side: L R, LFE
Sampling rate : 48.0 kHz
Frame rate : 31.250 FPS (1536 spf)
Compression mode : Lossy
Stream size : 457 MiB (1%)
Language : Spanish
Default : Yes
Forced : No

Audio #4
ID : 5
Format : AC-3
Format/Info : Audio Coding 3
Mode extension : CM (complete main)
Format settings, Endianness : Big
Codec ID : A_AC3
Duration : 2 h 22 min
Bit rate mode : Constant
Bit rate : 448 kb/s
Channel(s) : 6 channels
Channel positions : Front: L C R, Side: L R, LFE
Sampling rate : 48.0 kHz
Frame rate : 31.250 FPS (1536 spf)
Compression mode : Lossy
Stream size : 457 MiB (1%)
Language : Portuguese
Default : No
Forced : No

Audio #5
ID : 6
Format : AC-3
Format/Info : Audio Coding 3
Mode extension : CM (complete main)
Format settings, Endianness : Big
Codec ID : A_AC3
Duration : 2 h 22 min
Bit rate mode : Constant
Bit rate : 192 kb/s
Channel(s) : 2 channels
Channel positions : Front: L R
Sampling rate : 48.0 kHz
Frame rate : 31.250 FPS (1536 spf)
Compression mode : Lossy
Stream size : 196 MiB (0%)
Language : Hindi
Default : No
Forced : No

Chapters = YES & Named
Sample : Included

Screenshots of the movie:









File size: 46.97 GB


download 4k movies

Watch the movie trailer Star Wars Episode II Attack Of The Clones 2002 MULTI UHD 4K x264 DTS-HDMA MSubs
Watch the movie trailer
Comments