Planet Earth II S01 E03 Jungles 2160P Ultra HD

Producer: David Attenborough
Cast:-
IMDB 9.6
File Size 16.50 GB
Film description
David Attenborough returns in this breathtaking documentary showcasing life on Planet Earth.


Video
ID : 1
Format : HEVC
Format/Info : High Efficiency Video Coding
Format profile : Main 10@L5.1@High
Codec ID : V_MPEGH/ISO/HEVC
Duration : 53 min 4 s
Bit rate : 43.0 Mb/s
Width : 3 840 pixels
Height : 2 160 pixels
Display aspect ratio : 16:9
Frame rate mode : Constant
Frame rate : 23.976 (24000/1001) FPS
Color space : YUV
Chroma subsampling : 4:2:0 (Type 2)
Bit depth : 10 bits
Bits/(Pixel*Frame) : 0.216
Stream size : 16.0 GiB (95%)
Default : Yes
Forced : No
Color range : Limited
Color primaries : BT.2020
Transfer characteristics : SMPTE ST 2084
Matrix coefficients : BT.2020 non-constant
Mastering display color primaries : R: x=0.000000 y=0.000000, G: x=0.000000 y=0.000000, B: x=0.000000 y=0.000000, White point: x=0.000000 y=0.000000
Mastering display luminance : min: 0.0000 cd/m2, max: 0.0000 cd/m2

Audio
ID : 2
Format : DTS
Format/Info : Digital Theater Systems
Format profile : MA / Core
Mode : 16
Format settings, Endianness : Big
Codec ID : A_DTS
Duration : 53 min 4 s
Bit rate mode : Variable / Constant
Bit rate : 2 301 kb/s / 1 509 kb/s
Channel(s) : 6 channels
Channel positions : Front: L C R, Side: L R, LFE
Sampling rate : 48.0 kHz
Frame rate : 93.750 FPS (512 spf)
Bit depth : 16 bits
Compression mode : Lossless / Lossy
Stream size : 873 MiB (5%)
Language : English
Default : Yes
Forced : No

Text
ID : 3
Format : PGS
Muxing mode : zlib
Codec ID : S_HDMV/PGS
Codec ID/Info : Picture based subtitle format used on BDs/HD-DVDs
Duration : 52 min 18 s
Bit rate : 25.1 kb/s
Count of elements : 710
Stream size : 9.39 MiB (0%)
Title : English-PGS
Language : English
Default : Yes
Forced : No

Menu
00:00:00.000 : en:Chapter 1
00:12:26.245 : en:Chapter 2
00:18:49.253 : en:Chapter 3
00:33:45.023 : en:Chapter 4
00:43:04.582 : en:Chapter 5

File size: 16.50 GB


download 4k movies

Watch the movie trailer Planet Earth II S01 E03 Jungles 2160P Ultra HD
Watch the movie trailer
Comments