Hacksaw Ridge 4K 2016 BDRip 2160p x265 HEVC [ENG]

Australia, USA Movies / Drama 4K
Producer: Mel Gibson
Cast:Andrew Garfield, Sam Worthington, Teresa Palmer, Luke Bracey, Vince Vaughn, Hugo Weaving, Rachel Griffiths, Nathaniel Buzolic, Richard Roxburgh, Firass Dirani, Richard Pyros...
IMDB 8.30
File Size 31.06 GB
Film description
Medic of the American army of World War II Desmond Doss, who served during the battle for Okinawa, refuses to kill people and becomes the first ideological deviator in American history, awarded the Medal of Honor.

The theme of the Second World War in the cinema is still extremely demanded, but it is only ever less frequented by the large rental and films of category A, which are all discussed, as once the works of Spielberg, Polanski, Eastwood. For reasons of conscience can not be called an expensive epic - by modern standards for such funds now remove family comedy. Along with this, Mel Gibson's work caused a certain positive stir around him, and, despite limited rental, spread, in the format of recommendations for word of mouth.

The world cinema community seems to have forgotten that Mel Gibson is not known for his statements on racial grounds and press baiting, but as a fine actor and famous director whose recent work was of high quality. "For reasons of conscience", despite its six Oscar nominations, it is not perceived as a movie, originally focused on awards. It is in many ways a modest in scale and staging a story about the personal drama of one person. Moral themes and the justification of war are raised at a not so high level to go beyond the specific history of Desmond Doss.

Conditionally, the plot can be divided into three parts, with increasing interest in what is happening. Firstly, this is a rather boring melodramatic story about drunkenness in the family, about beatings, about the girl of dreams, about walks among picturesque landscapes. Secondly, the snatched up ideas of the novice's story, which they do not take for their own and try to survive from service (according to the sensations here 50% of the "Military Diver", 30% of "Jane's Soldier" and a little left - the original one). And in the third - this is a military drama, reduced to the scale of the battle for a patch of Japanese land.

As for setting battles on the very ridge, the title of which served as the title for the movie Hacksaw Ridge, the action turned out to be original, but not so much as to be remembered more than even good series on topics such as "Brothers in Arms" or "Pacific". The film avoids serious realism, every now and then, stealing the camera away from the horrors of the war. With all due respect to the hero's heroic deed, the second half of the film also seems boring, especially in contrast to a number of predecessors who were left in a state of emotional ecstasy. Only praise deserves the game of young Andrew Garfield, who excelled in choosing roles. In general, it's just a good movie, which is worth seeing, but no more. Download movie Hacksaw Ridge 4K ultra hd.
Info:

Video
ID : 1
Format : HEVC
Format/Info : High Efficiency Video Coding
Format profile : Main 10@L5@High
Codec ID : V_MPEGH/ISO/HEVC
Duration : 2 h 19 min
Bit rate : 27.6 Mb/s
Width : 3 840 pixels
Height : 1 612 pixels
Display aspect ratio : 2.40:1
Frame rate mode : Constant
Frame rate : 23.976 (23976/1000) FPS
Color space : YUV
Chroma subsampling : 4:2:0 (Type 2)
Bit depth : 10 bits
Bits/(Pixel*Frame) : 0.186
Stream size : 26.9 GiB (87%)
Title : Hacksaw Ridge 4K (2016)-alE13
Writing library : x265 2.2+2-998d4520d1cf:[Windows][GCC 6.2.0][64 bit] 10bit
Forced : No
Color range : Limited
Color primaries : BT.2020
Transfer characteristics : SMPTE ST 2084
Matrix coefficients : BT.2020 non-constant
Mastering display color pri : R: x=0.680000 y=0.320000, G: x=0.265000 y=0.690000, B: x=0.150000
y=0.060000, White point: x=0.312700 y=0.329000
Mastering display luminance : min: 0.0000 cd/m2, max: 1000.0000 cd/m2
Maximum Content Light Level : 1000 cd/m2
Maximum Frame-Average Light : 321 cd/m2

Audio
ID : 2
Format : Atmos / TrueHD
Codec ID : A_TRUEHD
Duration : 2 h 19 min
Bit rate mode : Variable
Bit rate : 4 198 kb/s
Maximum bit rate : 5 799 kb/s
Channel(s) : Object Based / 8 channels
Channel positions : Object Based / Front: L C R, Side: L R, Back: L R, LFE
Sampling rate : / 48.0 kHz
Frame rate : 1 200.000 FPS (40 spf)
Compression mode : Lossless
Stream size : 4.09 GiB (13%)
Title : Hacksaw Ridge 4K (2016)-alE13_Dolby Atmos/True HD 7.1 @ 4838 kbps - Blu-ray
Language : English
Default : No
Forced : No

Text
ID : 3
Format : UTF-8
Codec ID : S_TEXT/UTF8
Codec ID/Info : UTF-8 Plain Text
Duration : 2 h 10 min
Bit rate : 41 b/s
Count of elements : 1007
Stream size : 40.0 KiB (0%)
Title : Hacksaw Ridge 4K (2016)-alE13
Language : Polish
Default : Yes
Forced : No

Screenshots of the movie:









File size: 31.06 GB


download 4k movies

Watch the movie trailer Hacksaw Ridge 4K 2016 BDRip 2160p x265 HEVC [ENG]
Watch the movie trailer
Comments
reload, if the code cannot be seen