Warcraft 2016 2160p 4K UltraHD BluRay (x265 HEVC 10bit) 2CH AC3

China, Canada, Japan, USA Movies / Adventure 4K
Producer: Duncan Jones
Cast:Travis Fimmel, Paula Patton, Ben Foster, Dominic Cooper, Toby Kebbell, Ben Schnetzer, Robert Kazinsky, Clancy Brown, Daniel Wu Daniel, Ruth Negga, Anna Galvin, Callum Keith Rennie, Burkely Duffield, Ryan Robbins, Dean Redman, Glenn Ennis, Terry Notary, Elena Wurlitzer, Michael Adamthwaite, Anna Van Hooft, Callan Mulvey, Adrian Glynn McMorran, Kyle Rideout, Michael Antonakos, Elisabeth Rosen, Patrick Sabongui, Kent O'Connor, Wesley MacInnes, Mackenzie Gray, Christian Sloan, Valrie Wiseman, Dan Payne, Eugene Lipinski, Christina Jastrzembska, Travis MacDonald, Frank C. Turner, Tommy Rieder, Dylan Schombing, Donavon Stinson, Meelah Robbins, One Take Charlie
IMDB 7.00
File Size 52.6 GB
Film description
For centuries, magic and unapproachable walls protected people from any kind of misfortune. But the ancient evil, defeated and forgotten millennia ago, awakened. Download movie of Warcraft 2016 in 4k.

In the heart of the kingdom opened a dark portal, and a race of unseen creatures flooded the land of Azeroth. Thus began the events designed to forever change the fate of this world.

Format : Matroska
Format version : Version 2
File size : 52.6 GiB
Duration : 2h 3mn
Overall bit rate : 61.2 Mbps
Encoded date : UTC 2016-09-30T17:50:50Z
Writing application : HandBrake 20160604111422-9206444-master 2016060501
Writing library : Lavf56.1.0 / Lavf56.1.0

Video
ID : 1
Format : HEVC
Format/Info : High Efficiency Video Coding
Format profile : Main 10@L6.1@Main
Codec ID : V_MPEGH/ISO/HEVC
Duration : 2h 3mn
Bit rate : 59.4 Mbps
Width : 3 840 pixels
Height : 2 160 pixels
Display aspect ratio : 16:9
Frame rate mode : Constant
Frame rate : 23.976 (24000/1001) fps
Color space : YUV
Chroma subsampling : 4:2:0
Bit depth : 10 bits
Bits/(Pixel*Frame) : 0.298
Stream size : 51.0 GiB (97%)
Writing library : x265 1.9+3-63308f7658c3:[Windows][GCC 5.2.0][64 bit] 10bit
Encoding settings : wpp / ctu=64 / min-cu-size=8 / max-tu-size=32 / tu-intra-depth=1 / tu-inter-depth=1 / me=1 / subme=2 / merange=57 / no-rect / no-amp / max-merge=2 / temporal-mvp / no-early-skip / rdpenalty=0 / no-tskip / no-tskip-fast / strong-intra-smoothing / no-lossless / no-cu-lossless / no-constrained-intra / no-fast-intra / open-gop / no-temporal-layers / interlace=0 / keyint=240 / min-keyint=24 / scenecut=40 / rc-lookahead=20 / lookahead-slices=8 / bframes=4 / bframe-bias=0 / b-adapt=2 / ref=3 / limit-refs=3 / no-limit-modes / weightp / no-weightb / aq-mode=1 / qg-size=32 / aq-strength=1.00 / cbqpoffs=0 / crqpoffs=0 / rd=3 / psy-rd=2.00 / rdoq-level=0 / psy-rdoq=0.00 / signhide / deblock / sao / no-sao-non-deblock / b-pyramid / cutree / no-intra-refresh / rc=abr / bitrate=61000 / qcomp=0.60 / qpmin=0 / qpmax=51 / qpstep=4 / ipratio=1.40 / pbratio=1.30
Default : Yes
Forced : No
Color range : Limited
Color primaries : BT.709
Transfer characteristics : BT.709
Matrix coefficients : BT.601

Audio
ID : 2
Format : AC-3
Format/Info : Audio Coding 3
Mode extension : CM (complete main)
Format settings, Endianness : Big
Codec ID : A_AC3
Duration : 2h 3mn
Bit rate mode : Constant
Bit rate : 640 Kbps
Channel(s) : 2 channels
Channel positions : Front: L R
Sampling rate : 48.0 KHz
Frame rate : 31.250 fps (1536 spf)
Compression mode : Lossy
Delay relative to video : -5ms
Stream size : 564 MiB (1%)
Title : Stereo
Default : Yes
Forced : No

Screenshots of the movie:









File size: 52.6 GB


download 4k movies

Watch the movie trailer Warcraft 2016 2160p 4K UltraHD BluRay (x265 HEVC 10bit) 2CH AC3
Watch the movie trailer
Comments
reload, if the code cannot be seen